[Login] or [Signup]
Login
Username:
Password:
[Signup]
[Recover Account]


Poll


You must be logged in to view polls



Torrent Details For "Zero (2018) Hindi Movie - HDRip [Mp4 - AAC3(5.1Ch)] - 850 MB"

Zero (2018) Hindi Movie - HDRip [Mp4 - AAC3(5.1Ch)] - 850 MB

Download this torrent | Magnet Download
Health:
Seeds: 79
Leechers: 27
Completed: 190 
Last Checked: 12-02-2019 15:06:16
External Torrent
Update Stats
Download Magnet


Poster


iMDB
Title: Zero
Year: 2018
Language: Hindi
Director: Aanand L. Rai
Writing By: Himanshu Sharma,
Produced By: Karuna Badwal,Gauri Khan,Prashant Shah,Shashikant Sinha,
Cast:
Shah Rukh Khan as Bauaa Singh
Katrina Kaif as Zara Khan
Salman Khan as Salman Khan
Anushka Sharma as Chitrangada
Sridevi as
Abhay Deol as
R. Bhakti Klein as Flight Director
Bill Billions as NSAR Security Chief Larry Walter
Brandon Laabs as Groom
Bryan Benfield as Space Program Candidate
Trailers:
Zero Teaser


Watch-Free-HD     Download

Details
Name:Zero (2018) Hindi Movie - HDRip [Mp4 - AAC3(5.1Ch)] - 850 MB
Description:
  Zero (2018) Hindi Movie - HDRip
[Mp4 - AAC3(5.1Ch)] - 850 MB
 





General
Format                                   : MPEG-4
Format profile                           : Base Media
Codec ID                                 : isom (isom)
File size                                : 851 MiB
Duration                                 : 2 h 53 min

Video
ID                                       : 1
Format                                   : AVC
Format/Info                              : Advanced Video Codec
Format profile                           : [email protected]
Format settings                          : CABAC / 4 Ref Frames
Format settings, CABAC                   : Yes
Format settings, RefFrames               : 4 frames
Codec ID                                 : avc1
Codec ID/Info                            : Advanced Video Coding
Duration                                 : 2 h 53 min
Bit rate                                 : 554 kb/s
Maximum bit rate                         : 2 852 kb/s
Width                                    : 640 pixels
Height                                   : 272 pixels
Display aspect ratio                     : 2.35:1
Frame rate mode                          : Constant
Frame rate                               : 25.000 FPS
Color space                              : YUV
Chroma subsampling                       : 4:2:0
Bit depth                                : 8 bits
Scan type                                : Progressive
Bits/(Pixel*Frame)                       : 0.127
Stream size                              : 688 MiB (81%)

Audio
ID                                       : 2
Format                                   : AAC LC SBR
Commercial name                          : HE-AAC
Format settings                          : Explicit
Codec ID                                 : mp4a-40-2
Duration                                 : 2 h 53 min
Bit rate mode                            : Variable
Bit rate                                 : 128 kb/s
Maximum bit rate                         : 137 kb/s
Channel(s)                               : 6 channels
Channel layout                           : C L R Ls Rs LFE
Sampling rate                            : 48.0 kHz
Stream size                              : 159 MiB (19%)


Thumbnail




Category:Movies > Bollywood
Lang:Hindi
Total Size:850.50 MB
Info Hash:38482ac76f78375b966b4cb4a26616f4f61e017d
Added By:CyberTron
Date Added:11-02-2019 10:01:07
Views:593
Hits:98

Download Torrent

Ratings:Not Yet Rated (Log in to rate it)

  


Tracker:
udp://tracker.trackerfix.com:80/announce


File List: 


Comments

No comments still posted

Powered by 10 Hamsters v2-svn -|- Page Generated In 1.030471 secs.
-|- RSS FEED
Theme By: Nikkbu