[Login] or [Signup]
Login
Username:
Password:
[Signup]
[Recover Account]


Poll


You must be logged in to view polls



Torrent Details For "Bhaijaan.Elo.Re.2018.1080p.HDTV.x264-ACC.mp4"

Bhaijaan.Elo.Re.2018.1080p.HDTV.x264-ACC.mp4

Download this torrent | Magnet Download
Health:
Seeds: 0
Leechers: 9
Completed:
Last Checked: 18-02-2019 20:50:57
External Torrent
Update Stats
Download Magnet


Poster


iMDB
Title: Bhaijaan Elo Re
Year: 2018
Runtime: 160 minutes
Votes: 548
Rating: 8.5/10
Language: Bengali
Tagline: Bhaijaan Elo Re...
Director: Joydip Mukherjee
Writing By: Pele Bhattacharya,
Produced By: Eskay Movies,
Cast:
Donna Preston as
Payel Sarkar as Runa
Lee Nicholas Harris as Police officer
Hiten Patel as CISF Officer
Shakib Khan as Ajaan / Ujaan / Bhaijaan
Kharaj Mukherjee as
Rajatabha Dutta as Ranveer
Srabanti Chatterjee as Hiya
Richard Banks as Police officer 3
Biswanath Basu as Motta


Watch-Free-HD     Download

Details
Name:Bhaijaan.Elo.Re.2018.1080p.HDTV.x264-ACC.mp4
Description:
Bhaijaan.Elo.Re.2018.1080p.HDTV.x264-ACC.mp4




http://www.imdb.com/title/tt8051738/




[code]
Complete name                  : Bhaijaan.Elo.Re.2018.1080p.HDTV.x264-ACC.mp4
Format                         : MPEG-4
Format profile                 : Base Media / Version 2
Codec ID                       : mp42 (mp42)
File size                      : 1 005 MiB
Duration                       : 2 h 56 min
Overall bit rate               : 798 kb/s
Codirector                     : codirector
Production studio              : studio
ContentType                    : Unknown Type
Encoded date                   : UTC 2019-02-11 04:22:32
Tagged date                    : UTC 2019-02-11 04:22:32

Video
Format                         : AVC
Format/Info                    : Advanced Video Codec
Format profile                 : [email protected]
Format settings, CABAC         : Yes
Format settings, RefFrames     : 1 frame
Format settings, GOP           : M=1, N=25
Codec ID                       : avc1
Codec ID/Info                  : Advanced Video Coding
Duration                       : 2 h 56 min
Bit rate                       : 512 kb/s
Width                          : 640 pixels
Height                         : 360 pixels
Display aspect ratio           : 16:9
Frame rate mode                : Constant
Frame rate                     : 25.000 FPS
Color space                    : YUV
Chroma subsampling             : 4:2:0
Bit depth                      : 8 bits
Scan type                      : Progressive
Bits/(Pixel*Frame)             : 0.089
Stream size                    : 645 MiB (64%)

Audio
Format                         : AAC
Format/Info                    : Advanced Audio Codec
Format profile                 : LC
Codec ID                       : 40
Duration                       : 2 h 56 min
Bit rate mode                  : Constant
Bit rate                       : 274 kb/s
Channel(s)                     : 6 channels
Channel positions              : Front: L C R, Side: L R, LFE
Sampling rate                  : 44.1 kHz
Frame rate                     : 43.066 FPS (1024 SPF)
Compression mode               : Lossy
Stream size                    : 345 MiB (34%)
Title                          : Stereo
Language                       : English
Default                        : Yes
Alternate group                : 1
[/code]



















Category:Movies > 720P Bluray
Lang:Bengali  Bengali
Total Size:1,005.21 MB
Info Hash:f093cf3a18af01a1236b8b6576709712beb8936f
Added By:newlifemasti0
Date Added:11-02-2019 04:53:06
Views:114
Hits:76

Download Torrent

Ratings:Not Yet Rated (Log in to rate it)


Tracker:
udp://tracker.opentrackr.org:1337/announce

This Torrent also has backup trackers
URLSeedersLeechersCompleted
http://vps02.net.orel.ru:80/announce040
http://tracker.torrentyorg.pl/announce010


File List: 


Comments

No comments still posted

Powered by 10 Hamsters v2-svn -|- Page Generated In 1.888577 secs.
-|- RSS FEED
Theme By: Nikkbu