[Login] or [Signup]
Login
Username:
Password:
[Signup]
[Recover Account]


Poll


You must be logged in to view polls



Torrent Details For "18+ Game of Thrones S03 Complete 1080p BluRay x264 Dual Audio [Hindi DD2.0 - English DD5.1] - E..."

18+ Game of Thrones S03 Complete 1080p BluRay x264 Dual Audio [Hindi DD2.0 - English DD5.1] - E...

Download this torrent | Magnet Download
Health:
Seeds: 154
Leechers: 1,276
Completed: 63 
Last Checked: 04-02-2019 16:48:58
External Torrent
Update Stats
Download Magnet


Poster


Watch-Free-HD     Download

Details
Name:18+ Game of Thrones S03 Complete 1080p BluRay x264 Dual Audio [Hindi DD2.0 - English DD5.1] - E...
Description:
 

Format                                   : Matroska
Format version                           : Version 4
File size                                : 846 MiB
Duration                                 : 54 min 31 s
Overall bit rate                         : 2 168 kb/s
Movie name                               : Game of Thrones S03E01 (Valar Dohaeris) 1080p BluRay x264 Dual Audio [Hindi DD2.0 - English DD5.1] - Esubs ~ Ranvijay

Video
ID                                       : 1
Format                                   : AVC
Format/Info                              : Advanced Video Codec
Duration                                 : 54 min 31 s
Bit rate                                 : 1 576 kb/s
Width                                    : 1 920 pixels
Height                                   : 1 080 pixels
Display aspect ratio                     : 16:9
Frame rate mode                          : Constant
Frame rate                               : 23.976 (24000/1001) FPS
Color space                              : YUV
Chroma subsampling                       : 4:2:0
Bit depth                                : 8 bits
Scan type                                : Progressive
Bits/(Pixel*Frame)                       : 0.032
Stream size                              : 615 MiB (73%)
Title                                    : ~Ranvijay~

Audio #1
ID                                       : 2
Format                                   : AAC LC
Format/Info                              : Advanced Audio Codec Low Complexity
Codec ID                                 : A_AAC-2
Duration                                 : 54 min 31 s
Bit rate                                 : 132 kb/s
Channel(s)                               : 2 channels
Channel layout                           : L R
Sampling rate                            : 48.0 kHz
Frame rate                               : 46.875 FPS (1024 SPF)
Compression mode                         : Lossy
Delay relative to video                  : -21 ms
Stream size                              : 50.7 MiB (6%)
Title                                    : ~Ranvijay~
Language                                 : Hindi
Default                                  : Yes
Forced                                   : Yes

Audio #2
ID                                       : 3
Format                                   : AC-3
Format/Info                              : Audio Coding 3
Commercial name                          : Dolby Digital
Codec ID                                 : A_AC3
Duration                                 : 54 min 31 s
Bit rate mode                            : Constant
Bit rate                                 : 448 kb/s
Channel(s)                               : 6 channels
Channel layout                           : L R C LFE Ls Rs
Sampling rate                            : 48.0 kHz
Frame rate                               : 31.250 FPS (1536 SPF)
Bit depth                                : 16 bits
Compression mode                         : Lossy
Delay relative to video                  : -5 ms
Stream size                              : 175 MiB (21%)
Title                                    : ~Ranvijay~
Language                                 : English
Service kind                             : Complete Main
Default                                  : No
Forced                                   : No

Text #1
ID                                       : 4
Format                                   : PGS
Muxing mode                              : zlib
Codec ID                                 : S_HDMV/PGS
Codec ID/Info                            : Picture based subtitle format used on BDs/HD-DVDs
Duration                                 : 3 min 9 s
Bit rate                                 : 5 803 b/s
Count of elements                        : 42
Stream size                              : 135 KiB (0%)
Title                                    : ~Ranvijay~
Language                                 : English
Default                                  : Yes
Forced                                   : Yes

Text #2
ID                                       : 5
Format                                   : PGS
Muxing mode                              : zlib
Codec ID                                 : S_HDMV/PGS
Codec ID/Info                            : Picture based subtitle format used on BDs/HD-DVDs
Duration                                 : 52 min 50 s
Bit rate                                 : 11.6 kb/s
Count of elements                        : 1420
Stream size                              : 4.38 MiB (1%)
Title                                    : ~Ranvijay~
Language                                 : English
Default                                  : No
Forced                                   : No

Menu
00:00:00.000                             : :00:00:00.000
00:00:06.089                             : :00:00:06.006
00:05:06.556                             : :00:05:06.556
00:12:28.248                             : :00:12:28.247
00:18:51.547                             : :00:18:51.547
00:26:45.854                             : :00:26:45.854
00:35:24.372                             : :00:35:24.372
00:43:18.304                             : :00:43:18.304
00:53:11.772                             : :00:53:11.730



SCERNSHOTS
**************************************************

 

 

 

 

 

 

Category:TV > WEB-HD
Lang:Hindi
Total Size:8.72 GB
Info Hash:f768de4f96effd21a6f5867278cb08e9d02e4bcd
Added By:RAFI
Date Added:04-02-2019 09:22:10
Views:696
Hits:86

Download Torrent

Ratings:Not Yet Rated (Log in to rate it)

  


Tracker:
udp://tracker.pirateparty.gr:6969/announce

This Torrent also has backup trackers
URLSeedersLeechersCompleted
http://tracker.fastdownload.xyz:443/announce9600
http://seeders-paradise.org:443/announce000
http://share.camoe.cn:8080/announce000
http://open.acgnxtracker.com:80/announce270


File List: 


Comments

No comments still posted

Powered by 10 Hamsters v2-svn -|- Page Generated In 0.904163 secs.
-|- RSS FEED
Theme By: Nikkbu